<?xml version="1.0" standalone="no"?>
<!DOCTYPE svg PUBLIC "-//W3C//DTD SVG 1.1//EN" "http://www.w3.org/Graphics/SVG/1.1/DTD/svg11.dtd" >
<svg xmlns="http://www.w3.org/2000/svg">
<metadata>Generated by IcoMoon</metadata>
<defs>
<font id="wyp-ed" horiz-adv-x="1024">
<font-face units-per-em="1024" ascent="870.4" descent="-153.6" />
<missing-glyph horiz-adv-x="1024" />
<glyph unicode="&#x20;" horiz-adv-x="0" d="" />
<glyph unicode="&#xe801;" glyph-name="arrow-down" d="M768 454.4l-205.824-307.2-203.776 307.2h409.6z" />
<glyph unicode="&#xe804;" glyph-name="flag" d="M256-57.6v768h-102.4v-768h102.4zM307.2 249.6v409.6c153.6 51.2 358.4-51.2 563.2 0v-409.6c-153.6-64.512-409.6 51.2-563.2 0z" />
<glyph unicode="&#xe805;" glyph-name="controls-pause" d="M256 44.8v614.4h153.6v-614.4h-153.6zM614.4 659.2h153.6v-614.4h-153.6v614.4z" />
<glyph unicode="&#xe806;" glyph-name="plus" d="M870.4 505.6v-153.6h-256v-256h-153.6v256h-256v153.6h256v256h153.6v-256h256z" />
<glyph unicode="&#xe808;" glyph-name="filter" d="M153.6 633.6v102.4s171.008 51.2 358.4 51.2 358.4-51.2 358.4-51.2v-102.4l-256-359.424v-357.376s-62.464 4.096-114.688 29.696-90.112 72.704-90.112 72.704v254.976z" />
<glyph unicode="&#xe809;" glyph-name="admin-collapse" d="M512 753.408c222.208 0 401.408-179.2 401.408-401.408s-179.2-401.408-401.408-401.408-401.408 180.224-401.408 401.408 182.272 401.408 401.408 401.408zM614.4 153.344v397.312l-297.984-196.608z" />
<glyph unicode="&#xe80b;" glyph-name="external" d="M460.8 710.4h409.6v-409.6l-102.4 51.2v157.696l-286.72-285.696-71.68 71.68 311.296 312.32h-208.896zM614.4 96v153.6l102.4 102.4v-358.4h-563.2v563.2h409.6l-102.4-102.4h-204.8v-358.4h358.4z" />
<glyph unicode="&#xe80d;" glyph-name="yes" d="M759.808 614.144l68.608-48.128-297.984-429.056h-68.608l-165.888 232.448 68.608 63.488 132.096-122.88z" />
<glyph unicode="&#xe80e;" glyph-name="no-alt" d="M765.952 533.248l-181.248-181.248 181.248-181.248-72.704-71.68-181.248 180.224-180.224-180.224-72.704 72.704 180.224 180.224-180.224 181.248 72.704 72.704 180.224-181.248 181.248 181.248z" />
<glyph unicode="&#xe80f;" glyph-name="desktop" d="M153.6 761.6h716.8c28.672 0 51.2-22.528 51.2-51.2v-512c0-27.648-22.528-51.2-51.2-51.2h-256v-102.4h102.4c28.672 0 51.2-22.528 51.2-51.2v-51.2h-512v51.2c0 28.672 23.552 51.2 51.2 51.2h102.4v102.4h-256c-27.648 0-51.2 23.552-51.2 51.2v512c0 28.672 23.552 51.2 51.2 51.2zM819.2 300.8v358.4h-614.4v-358.4h614.4zM256 608h460.8l-460.8-204.8v204.8z" />
<glyph unicode="&#xe810;" glyph-name="smartphone" d="M307.2 761.6h409.6c28.672 0 51.2-22.528 51.2-51.2v-716.8c0-28.672-22.528-51.2-51.2-51.2h-409.6c-27.648 0-51.2 22.528-51.2 51.2v716.8c0 28.672 23.552 51.2 51.2 51.2zM665.6 147.2v512h-307.2v-512h307.2zM409.6 608h204.8l-204.8-256v256z" />
<glyph unicode="&#xe811;" glyph-name="editor-alignright" d="M870.4 608v102.4h-460.8v-102.4h460.8zM870.4 403.2v102.4h-716.8v-102.4h716.8zM870.4 198.4v102.4h-460.8v-102.4h460.8zM870.4-6.4v102.4h-716.8v-102.4h716.8z" />
<glyph unicode="&#xe812;" glyph-name="editor-aligncenter" d="M716.8 608v102.4h-409.6v-102.4h409.6zM870.4 403.2v102.4h-716.8v-102.4h716.8zM716.8 198.4v102.4h-409.6v-102.4h409.6zM870.4-6.4v102.4h-716.8v-102.4h716.8z" />
<glyph unicode="&#xe813;" glyph-name="editor-alignleft" d="M614.4 608v102.4h-460.8v-102.4h460.8zM870.4 403.2v102.4h-716.8v-102.4h716.8zM614.4 198.4v102.4h-460.8v-102.4h460.8zM870.4-6.4v102.4h-716.8v-102.4h716.8z" />
<glyph unicode="&#xe814;" glyph-name="editor-justify" d="M102.4 710.4h819.2v-102.4h-819.2v102.4zM102.4 505.6h819.2v-102.4h-819.2v102.4zM102.4 300.8h819.2v-102.4h-819.2v102.4zM102.4 96h819.2v-102.4h-819.2v102.4z" />
<glyph unicode="&#xe815;" glyph-name="visibility" d="M936.96 377.6c-168.96 235.52-501.76 291.84-737.28 117.76-61.44-46.080-112.64-107.52-153.6-174.080 10.24-20.48 25.6-40.96 40.96-61.44 168.96-235.52 491.52-286.72 727.040-122.88 46.080 35.84 87.040 71.68 122.88 122.88 15.36 20.48 25.6 40.96 40.96 61.44-15.36 20.48-25.6 40.96-40.96 56.32zM517.12 495.36c25.6 25.6 66.56 25.6 92.16 0s25.6-66.56 0-92.16-66.56-25.6-92.16 0-25.6 66.56 0 92.16zM512 101.12c-158.72 0-307.2 81.92-394.24 215.040 61.44 87.040 143.36 148.48 240.64 179.2-35.84-40.96-51.2-87.040-51.2-138.24 0-112.64 87.040-209.92 204.8-209.92 112.64 0 209.92 87.040 209.92 204.8v5.12c0 51.2-20.48 102.4-56.32 138.24 97.28-30.72 179.2-92.16 240.64-179.2-87.040-133.12-235.52-215.040-394.24-215.040z" />
<glyph unicode="&#xe816;" glyph-name="hidden" d="M885.76 695.040c-20.48 20.48-56.32 20.48-81.92 0l-122.88-122.88c-56.32 20.48-112.64 30.72-168.96 30.72-194.56-5.12-368.64-107.52-460.8-276.48 10.24-20.48 25.6-40.96 40.96-61.44 40.96-56.32 92.16-102.4 148.48-138.24l-87.040-87.040c-20.48-20.48-25.6-56.32 0-81.92 20.48-20.48 56.32-25.6 81.92 0l650.24 655.36c20.48 25.6 20.48 61.44 0 81.92zM343.040 234.24l-66.56-66.56c-61.44 35.84-117.76 87.040-158.72 148.48 61.44 87.040 143.36 148.48 240.64 179.2-66.56-71.68-71.68-184.32-15.36-261.12zM517.12 403.2c-25.6 25.6-20.48 66.56 5.12 92.16 25.6 20.48 61.44 20.48 87.040 0l-92.16-92.16zM936.96 377.6c-25.6 35.84-56.32 71.68-92.16 97.28l-51.2-51.2c40.96-30.72 76.8-66.56 107.52-112.64-87.040-133.12-235.52-215.040-394.24-215.040h-40.96l-51.2-51.2c35.84 5.12 66.56 0 97.28 0 168.96 0 327.68 81.92 424.96 220.16 15.36 20.48 25.6 40.96 40.96 61.44-15.36 15.36-25.6 35.84-40.96 51.2zM716.8 352l-204.8-204.8c112.64 0 204.8 92.16 204.8 204.8z" />
<glyph unicode="&#xe818;" glyph-name="menu" d="M153.6 96h716.8v102.4h-716.8v-102.4zM153.6 608v-102.4h716.8v102.4h-716.8zM153.6 300.8h716.8v102.4h-716.8v-102.4z" />
<glyph unicode="&#xe819;" glyph-name="controls-play" d="M256 659.2l512-307.2-512-307.2v614.4z" />
<glyph unicode="&#xe81a;" glyph-name="trash" d="M614.4 659.2h153.6c30.72 0 51.2-20.48 51.2-51.2v-51.2h-665.6v51.2c0 30.72 25.6 51.2 51.2 51.2h153.6c10.24 56.32 66.56 102.4 128 102.4s117.76-46.080 128-102.4zM409.6 659.2h153.6c-10.24 30.72-46.080 51.2-76.8 51.2s-66.56-20.48-76.8-51.2zM204.8 505.6h563.2l-46.080-517.12c0-25.6-25.6-46.080-51.2-46.080h-368.64c-25.6 0-46.080 20.48-51.2 46.080l-46.080 517.12z" />
<glyph unicode="&#xe81b;" glyph-name="warning" d="M512 761.6c226.304 0 409.6-183.296 409.6-409.6s-183.296-409.6-409.6-409.6-409.6 183.296-409.6 409.6 183.296 409.6 409.6 409.6zM570.368 281.344l17.408 330.752h-151.552l18.432-330.752h115.712zM565.248 109.312c12.288 12.288 19.456 28.672 19.456 49.152 0 21.504-6.144 37.888-18.432 50.176s-30.72 17.408-54.272 17.408-41.984-6.144-55.296-17.408-18.432-28.672-18.432-50.176c0-20.48 6.144-36.864 19.456-49.152 13.312-11.264 30.72-17.408 54.272-17.408s40.96 6.144 53.248 17.408z" />
<glyph unicode="&#xe81c;" glyph-name="arrow-up" d="M563.2 505.6l-204.8-307.2h409.6" />
</font>
</defs>
</svg>
